  0
SECTION
  2
HEADER
  9
$LIMMIN
 10
0.000000
 20
0.000000
  9
$LIMMAX
 10
164.656075
 20
287.647797
  9
$EXTMIN
 10
0.000000
 20
0.000000
  9
$EXTMAX
 10
164.656075
 20
287.647797
  9
$ANGBASE
 50
0.000000
  9
$ANGDIR
 70
0
  9
$INSUNITS
 70
4
  9
$DIMALT
 70
4
  9
$DIMLUNIT
 70
2
  9
$DIMASZ
 40
3.000000
  9
$DIMTXT
 40
5.000000
  9
$DIMRND
 40
0.010000
  9
$DIMEXE
 40
2.000000
  9
$DIMEXO
 40
2.000000
  9
$DIMAUNIT
 70
0
  9
$DIMADEC
 70
2
  9
$GRIDUNIT
 10
0.001000
 20
0.001000
  9
$PLIMMIN
 10
0.000000
 20
0.000000
  9
$PLIMMAX
 10
210.000000
 20
297.000000
  9
$PSVPSCALE
 40
1.000000
  0
ENDSEC
  0
SECTION
  2
TABLES
  0
TABLE
  2
LTYPE
 70
     1
  0
LTYPE
  2
CONTINUOUS
 70
    64
  3
Ausgez
 72
    65
 73
  0
 40
0.000000
  0
ENDTAB
  0
TABLE
  2
LAYER
 70
     1
  0
LAYER
  2
default
 70
    64
 62
7
  6
CONTINUOUS
  0
ENDTAB
  0
ENDSEC
  0
SECTION
  2
BLOCKS
  0
ENDSEC
  0
SECTION
  2
ENTITIES
  0
LINE
  8
default
  6
CONTINUOUS
 10
16.099065
 20
274.239252
 11
116.579439
 21
274.239252
 39
0
 62
7
  0
LINE
  8
default
  6
CONTINUOUS
 10
116.579439
 20
274.239252
 11
101.590654
 21
194.299065
 39
0
 62
7
  0
LINE
  8
default
  6
CONTINUOUS
 10
31.087850
 20
194.299065
 11
16.099065
 21
274.239252
 39
0
 62
7
  0
LINE
  8
default
  6
CONTINUOUS
 10
31.087850
 20
194.299065
 11
31.087850
 21
191.523364
 39
0
 62
7
  0
LINE
  8
default
  6
CONTINUOUS
 10
101.590654
 20
194.299065
 11
101.590654
 21
191.523364
 39
0
 62
7
  0
LINE
  8
default
  6
CONTINUOUS
 10
101.590654
 20
191.523364
 11
31.087850
 21
191.523364
 39
0
 62
7
  0
LINE
  8
default
  6
DOT
 10
31.087850
 20
194.299065
 11
101.590654
 21
194.299065
 39
0
 62
7
  0
LINE
  8
default
  6
CONTINUOUS
 10
139.938908
 20
193.248968
 11
139.938908
 21
196.324549
 39
0
 62
7
  0
LINE
  8
default
  6
CONTINUOUS
 10
150.190843
 20
273.214059
 11
147.627859
 21
273.214059
 39
0
 62
7
  0
ARC
  8
default
  6
CONTINUOUS
 10
146.190843
 20
197.248968
 40
4.000000
 50
270.000000
 51
0.000000
 39
0
 62
7
  0
LINE
  8
default
  6
CONTINUOUS
 10
150.190843
 20
273.214059
 11
150.190843
 21
197.248968
 39
0
 62
7
  0
LINE
  8
default
  6
CONTINUOUS
 10
146.190843
 20
193.248968
 11
139.938908
 21
193.248968
 39
0
 62
7
  0
ARC
  8
default
  6
CONTINUOUS
 10
144.627859
 20
199.324549
 40
3.000000
 50
270.000000
 51
0.000000
 39
0
 62
7
  0
LINE
  8
default
  6
CONTINUOUS
 10
147.627859
 20
273.214059
 11
147.627859
 21
199.324549
 39
0
 62
7
  0
LINE
  8
default
  6
CONTINUOUS
 10
139.938908
 20
196.324549
 11
144.627859
 21
196.324549
 39
0
 62
7
  0
LINE
  8
default
  6
CONTINUOUS
 10
30.376103
 20
139.540222
 11
100.146214
 21
139.540222
 39
0
 62
7
  0
LINE
  8
default
  6
CONTINUOUS
 10
100.146214
 20
139.540222
 11
100.146214
 21
141.913355
 39
0
 62
7
  0
LINE
  8
default
  6
CONTINUOUS
 10
100.146214
 20
141.913355
 11
30.850729
 21
141.913355
 39
0
 62
7
  0
LINE
  8
default
  6
CONTINUOUS
 10
30.850729
 20
141.913355
 11
30.376103
 21
139.540222
 39
0
 62
7
  0
LINE
  8
default
  6
CONTINUOUS
 10
30.850729
 20
141.913355
 11
34.173116
 21
151.880514
 39
0
 62
7
  0
LINE
  8
default
  6
CONTINUOUS
 10
100.146214
 20
141.913355
 11
96.823827
 21
151.880514
 39
0
 62
7
  0
LINE
  8
default
  6
CONTINUOUS
 10
96.823827
 20
151.880514
 11
34.173116
 21
151.880514
 39
0
 62
7
  0
DIMENSION
  8
default
  6
CONTINUOUS
  1
100;;
 10
16.099065
 20
279.790654
 13
16.099065
 23
274.239252
 14
116.579439
 24
274.239252
 50
0.000000
 70
0
 39
0
 62
7
  0
DIMENSION
  8
default
  6
CONTINUOUS
  1
70;;
 10
31.087850
 20
180.420561
 13
31.087850
 23
191.523364
 14
101.590654
 24
191.523364
 50
0.000000
 70
0
 39
0
 62
7
  0
DIMENSION
  8
default
  6
CONTINUOUS
  1
102;;
 13
44.966355
 23
194.299065
 14
45.241204
 24
194.299065
 10
24.104015
 20
231.546183
 15
28.479549
 25
208.210003
 16
45.241204
 26
194.299065
 70
2
 39
0
 62
7
  0
DIMENSION
  8
default
  6
CONTINUOUS
  1
1;;
 10
132.678505
 20
193.248968
 13
139.938908
 23
193.248968
 14
139.938908
 24
196.324549
 50
90.000000
 70
0
 39
0
 62
7
  0
DIMENSION
  8
default
  6
CONTINUOUS
  1
10;;
 10
139.938908
 20
179.310280
 13
139.938908
 23
193.248968
 14
150.190843
 24
197.248968
 50
0.000000
 70
0
 39
0
 62
7
  0
DIMENSION
  8
default
  6
CONTINUOUS
  1
80;;
 10
162.656075
 20
193.248968
 13
146.190843
 23
193.248968
 14
150.190843
 24
273.214059
 50
90.000000
 70
0
 39
0
 62
7
  0
DIMENSION
  8
default
  6
CONTINUOUS
  1
1;;
 10
24.981308
 20
139.540222
 13
30.376103
 23
139.540222
 14
30.850729
 24
141.913355
 50
90.000000
 70
0
 39
0
 62
7
  0
DIMENSION
  8
default
  6
CONTINUOUS
  1
10;;
 10
25.269993
 20
151.880514
 13
34.173116
 23
151.880514
 14
30.850729
 24
141.913355
 50
90.000000
 70
0
 39
0
 62
7
  0
TEXT
  8
default
  6
CONTINUOUS
 10
127.425286
 20
146.243366
 40
10.000000
 50
0.000000
 72
0
  7
Normal#2.000000#6.000000
  1
Dil B
 39
0
 62
7
  0
POINT
  8
default
  6
CONTINUOUS
 10
30.646588
 20
77.422958
 39
0
 62
7
  0
ENDSEC
  0
EOF
